Last news

Memes anuncio loteria de navidad 2017

Copyright diario ABC,.L.Estos son algunos de los memes de la Lotería de Navidad más graciosos de los últimos años.ABC, actualizado: 13:39h, noticias relacionadas, con la llegada del anuncio del Sorteo Extraordinario.He aquí otro ejemplo de ingenio: También varios de los 'tuiteros' han echado en falta a Bill Murray, el


Read more

Life slots machine

More than 50 slot machines with bonus games.screen resolution, your country, etc.Shoot for the lotto eurojackpot ziehung am freitag mega progressive jackpots on slots free with bonus casinos now and discover the secrets to winning on slots free with bonus casinos.It also makes it appear very warm and hot


Read more

Juegos de casino tragamonedas de futbol

Wild Wolf Juegos de slot de línea.Jungle Wild en este video de: csi slot machine game Juegos de tragamonedas más populares, los principales juegos tragamonedas que puedes probar gratis en la mayoría de casinos son: Caribbean treasure Juego tragamonedas five reel slot.Frutillita Hot Juego tragamonedas 5 slot, jungle Wild


Read more

Flor de loto tailandia


Esclavitud De Tu Ser starts wonderful with soaring keyboards, twanging guitars, warm flute and tender vocals.
Read mode : Secure, utilize accurate stream : Yes, defeat audio cache : Yes.
Durante tres meses al año, el lago se cubre de un increíble manto de flor de loto rosa con unos 70 kilómetros cuadrados de extensión.
Wav Peak level.8 Track quality 100.0 Test CRC EF754D5D Copy CRC EF754D5D Track not present in AccurateRip bono chatarra database Copy OK Track 10 Filename C:Flor de Loto (Peru) - st (2005) flac Mylodon Records10.Weitere Informationen zu unseren Cookies und dazu, wie du die Kontrolle darüber behältst, findest du hier: administracion de loteria avenida mediterraneo benidorm Cookie-Richtlinie.Used drive : Optiarc DVD RW AD-7170A Adapter: 1 ID:.Halfway a blistering guitar solo, culminating in a prog metal atmosphere.The intro of Animal strongly brings early Rush to my mind, due to the raw and propulsive guitar riffs, again tastefully blended with Andean flutes, a powerful rhythm-section and fiery guitar.Additional musicians: - Rafael Valderrama / flute, recorder - Octavio Castillo / mandolin (4) - Lalo Williams / synthesizer (8).Null samples used in CRC calculations : Yes.Women's de grisogono Wristwatches, poljot de Luxe Wristwatches, must de Cartier Tank Wristwatches.La Fortaleza (3:39).Wav Peak level 100.0 Track quality 100.0 Test CRC 2ADC852D Copy CRC 2ADC852D Track not present in AccurateRip database Copy OK None of the tracks are present in the AccurateRip database No errors occurred End of status report.
Líneas de Nazca is the second instrumental on this album, it begins with soaring Andean flute, then rock guitar and a catchy mid-tempo beat with propulsive guitar riffs and Andean flute.




Wir verwenden Cookies, um Inhalte zu personalisieren, Werbeanzeigen maßzuschneidern und zu messen sowie die Sicherheit unserer Nutzer zu erhöhen.Desde Bangkok se puede ir en un largo viaje en autobús de alrededor de 8 horas hasta la ciudad.Wav Peak level 100.0 Track quality 100.0 Test CRC 7D4DC2E2 Copy CRC 7D4DC2E2 Track not present in AccurateRip database Copy OK Track 7 Filename C:Flor de Loto (Peru) - st (2005) flac Mylodon Records07.After a short break with tender piano the song is concluded pretty rocky.Gap handling : Appended to previous track.Halfway a sensational synthesizer solo, evoking Japanese keyboard wizard Toshio Egawa.Used interface : Installed external aspi interface.Wav Peak level 100.0 Track quality 100.0 Test CRC F22B4F3E Copy CRC F22B4F3E Track not present in AccurateRip database Copy OK Track 4 Filename C:Flor de Loto (Peru) - st (2005) flac Mylodon Records04.The first part in Almas Perdidas is melodic rock with delicate flute and rock guitar, fuelled by a powerful rhythm-section.Line-up/Musicians - Alonso Herrera / electric and acoustic guitars - Alejandro Jarrin / bass - Jorge Puccini / drums, percussion - Johnny Perez / flute, recorder, zampoña midi sequencer.Esta atracción natural maravilla a quienes se acercan a visitar este espejo de agua, que pasa desapercibido para la mayoría de turistas porque no conocen este fenómeno natural.The blend of Andean flute and thunderous drums is exciting, the Flor De Loto trademark sound.Nubes Oscuras (6:39).Es ahí cuando las restaurant casino vilafranca flores están completamente abiertas, mostrando sus vivos colores.

The second part delivers a dreamy sound, wonderful.
And I like the final part with the mighty Hammond organ!
In 2005 Flor De Loto released their eponymous debut album, followed by 7 studio-albums between 20, and one live album in 2015 entitled Medusa: En Vivo En Buenos Aires.


Sitemap